9号彩票官网

 找回密码

4K中国论坛

查看: 566675|回复: 48745
打印 上一主题 下一主题

[4K电影] 三星专用:4K家庭影院的震撼感受 大气蓬勃(变形金刚4+3预告片)H265/1.3G/百度

  [复制链接]
跳转到指定楼层
1楼(楼主)
发表于 2014-5-30 00:38:54 | 只看该作者 回帖奖励 |倒序浏览 |阅读模式
三星专用:4K家庭影院的震撼感受 大气蓬勃(变形金刚4+3预告片)H265/1.3G/百度
三星专用:4K家庭影院的震撼感受 大气蓬勃(变形金刚4+3预告片)H265/1.3G/百度
三星专用:4K家庭影院的震撼感受 大气蓬勃(变形金刚4+3预告片)H265/1.3G/百度
三星专用:4K家庭影院的震撼感受 大气蓬勃(变形金刚4+3预告片)H265/1.3G/百度
三星专用:4K家庭影院的震撼感受 大气蓬勃(变形金刚4+3预告片)H265/1.3G/百度
三星专用:4K家庭影院的震撼感受 大气蓬勃(变形金刚4+3预告片)H265/1.3G/百度

[三星专用]大气蓬勃 感受4K家庭影院的震撼(变形金刚4+3预告片)H265/1.3G/百度


General
ID                             : 0 (0x0)
Complete name                  : E:\4K中国\UHD_ENT_Transformer_Quad.ts
Format                         : MPEG-TS
File size                      : 1.38 GiB
Duration                       : 3mn 51s
Overall bit rate mode          : Constant
Overall bit rate               : 51.4 Mbps

Video
ID                             : 257 (0x101)
Menu ID                        : 1 (0x1)
Format                         : HEVC
Format/Info                    : High Efficiency Video Coding
Codec ID                       : 36
Duration                       : 3mn 50s
Bit rate                       : 48.7 Mbps
Stream size                    : 1.31 GiB (94%)

Audio
ID                             : 258 (0x102)
Menu ID                        : 1 (0x1)
Format                         : AAC
Format/Info                    : Advanced Audio Codec
Format version                 : Version 4
Format profile                 : LC
Muxing mode                    : ADTS
Codec ID                       : 15
Duration                       : 3mn 50s
Bit rate mode                  : Constant
Bit rate                       : 126 Kbps
Channel(s)                     : 2 channels
Channel positions              : Front: L R
Sampling rate                  : 48.0 KHz
Compression mode               : Lossy
Stream size                    : 3.45 MiB (0%)

这个应该是 变形金刚4+3+2+1混搭的4K演示片.

清晰度不错,无论是细节还是整体画面感,都很能代表4K电影的顶级水准。

游客,如果您要查看本帖隐藏内容请回复
收藏收藏50 分享淘帖
TV应用下载
回复

使用道具 举报

2楼(沙发)
发表于 2014-5-30 00:41:46 | 只看该作者
没想到我遇到个沙发了 三星专用:4K家庭影院的震撼感受 大气蓬勃(变形金刚4+3预告片)H265/1.3G/百度

点评

用爱奇艺万能播放器,可以出图像,  发表于 2015-12-17 09:18
需要安装MilkPlayer播放器才能播放,必须CPU高的才可流畅,或者三星S6手机 安装播放器也可以流畅  发表于 2015-6-23 17:54
多次下次测试,多台酷睿I7电脑测试,多种播放器测试,结果只有声音,没有图像,大家别下。  发表于 2015-6-23 17:45
回复 支持 12 反对 2

使用道具 举报

3楼(板凳)
发表于 2014-5-30 00:42:11 | 只看该作者
第一个 感谢分享  !4K电影的顶级水准
回复 支持 2 反对 3

使用道具 举报

4楼(地板)
发表于 2014-5-30 00:42:41 | 只看该作者
都很能代表4K电影的顶级水准!!看画面的确给力
回复 支持 3 反对 0

使用道具 举报

5楼
发表于 2014-5-30 00:43:56 | 只看该作者
看看呢,是不是哟
回复 支持 反对

使用道具 举报

6楼
发表于 2014-5-30 00:54:42 | 只看该作者
谢谢分享,下来看看
回复 支持 反对

使用道具 举报

7楼
发表于 2014-5-30 01:07:36 | 只看该作者
非常感谢分享!!!!!
回复 支持 反对

使用道具 举报

8楼
发表于 2014-5-30 01:22:00 | 只看该作者
变形金刚
回复

使用道具 举报

9楼
发表于 2014-5-30 01:37:08 | 只看该作者
嘿嘿嘿嘿嘿嘿嘿嘿嘿嘿嘿
回复 支持 0 反对 1

使用道具 举报

10楼
发表于 2014-5-30 02:03:33 | 只看该作者
谢谢分享。

点评

只有声音没有图像!  发表于 2014-7-6 23:19
回复

使用道具 举报

您需要登录后才可以回帖 登录 | 注册

本版积分规则

手机版|4K知识百科|小黑屋|标签|Sitemap|联系我们|Archiver| 4K中国论坛  

Copyright © 2013-2017 Comsenz Inc.   All Rights Reserved.

Powered by Discuz! X3.1

友情链接:幸运农场开奖  幸运农场开奖  北京赛车pk拾稳赚  永利彩票  北京赛车pk拾后二  

免责声明: 本站资料及图片来源互联网文章,本网不承担任何由内容信息所引起的争议和法律责任。所有作品版权归原创作者所有,与本站立场无关,如用户分享不慎侵犯了您的权益,请联系我们告知,我们将做删除处理!